Tracker|Orphanz|FZShows|Catalogue| FAQ |Search |Register|Mail us

Profile |Log in to check your private messages |Log in|Chat Room|Scrapbook|Zappateers map
Stick Men with Don Preston - 2014 07 20 ZAPPANALE #25 Bad Doberan DE 10.23 HD VID MC (Al Fresco-blackpage)  
Post new topic   Reply to topic    www.zappateers.com Forum Index -> FZ Related
DL-List
Complete: [ 52 ]
 
 
Author Message
blackpage
Contributor
Joined: 2005-09-02
Posts: 568
Location: Sonoran Desert
usa.gif
Contributor
Post 2014-07-23 19:40   [Quote] 
**Note, this was seeded at DIME this morning too, but they made seeding AlFresco's MOV raw hidef file an admin function,
so I changed the container to MKV over on DIME. This is being seeded as AlFresco intended**

-blackpage

Zappanale # 25 - The Jubilee - 17- 20 July 2014
Stick Men w/Don Preston
Date: July 20, 2014
Mystery Stage: 16 hrs-17 hrs:
Location: Galopprennbahn, Bad Doberan, Germany


Stick Men:
Tony Levin (Chapman Stick)
Pat Mastelotto (Drums)
Markus Reuter (U8 Touch Guitar)
Guest: Don Preston (Keyboards)

1. Improv with Don Preston (10:23)


Some comm´s:

In order to save batteries & room in the SC card for the next concert of the Grandmothers of Invention I had to record it in HD instead of Full HD option.

*****

AlFresco:
Here you will find this nice surprise with the appearance of Don Preston with Stick Men.

Did you know that Tony Levin, Don Preston, Billy Mundi with Ray Collins (missing guitarist name) had once a band together in early 70´s? and performed a gig at least one time.

Check this link: [url]https://groups.google.com/forum/#!msg/alt.fan.frank-zappa/KU2sPcoS7L8/M1HpuOXBQNYJ[/url]

****
Photo camera specs:
Canon PowerShot SX 230 HS
Aspect ratio: 16:9

Format : MPEG-4
Format profile : QuickTime
Codec ID : qt
File size : 1.76 GiB
Duration : 10mn 23s
Overall bit rate : 24.3 Mbps
Encoded date : UTC 2014-07-20 15:31:38
Tagged date : UTC 2014-07-20 15:31:38
CNTH : ˆ}
com.apple.quicktime.make : Canon
com.apple.quicktime.model : Canon PowerShot SX230 HS

Video
ID : 1
Format : AVC
Format/Info : Advanced Video Codec
Format profile : Baseline@L4.1
Format settings, CABAC : No
Format settings, ReFrames : 1 frame
Format settings, GOP : M=1, N=15
Codec ID : avc1
Codec ID/Info : Advanced Video Coding
Duration : 10mn 23s
Bit rate : 22.8 Mbps
Width : 1 280 pixels
Height : 720 pixels
Display aspect ratio : 16:9
Frame rate mode : Constant
Frame rate : 29.970 fps
Color space : YUV
Chroma subsampling : 4:2:0
Bit depth : 8 bits
Scan type : Progressive
Bits/(Pixel*Frame) : 0.824
Stream size : 1.65 GiB (94%)
Language : English
Encoded date : UTC 2014-07-20 15:31:38
Tagged date : UTC 2014-07-20 15:31:38
Color primaries : BT.709
Transfer characteristics : BT.709
Matrix coefficients : BT.601

Audio
ID : 2
Format : PCM
Format settings, Endianness : Little
Format settings, Sign : Signed
Codec ID : sowt
Duration : 10mn 23s
Bit rate mode : Constant
Bit rate : 1 536 Kbps
Channel(s) : 2 channels
Channel positions : Front: L R
Sampling rate : 48.0 KHz
Bit depth : 16 bits
Stream size : 114 MiB (6%)
Language : English
Encoded date : UTC 2014-07-20 15:31:38
Tagged date : UTC 2014-07-20 15:31:38

--
Enjoy! AlFresco and Blackpage


Last edited by blackpage on 2014-07-23 20:02; edited 2 times in total
Back to top
 [Profile]  [PM] 
blackpage
Contributor
Joined: 2005-09-02
Posts: 568
Location: Sonoran Desert
usa.gif
Contributor
Post 2014-07-23 19:43   [Quote] 
sample snapshot #1
Back to top
 [Profile]  [PM] 
blackpage
Contributor
Joined: 2005-09-02
Posts: 568
Location: Sonoran Desert
usa.gif
Contributor
Post 2014-07-23 19:43   [Quote] 
sample #2
Back to top
 [Profile]  [PM] 
blackpage
Contributor
Joined: 2005-09-02
Posts: 568
Location: Sonoran Desert
usa.gif
Contributor
Post 2014-07-23 19:44   [Quote] 
sample #3
Back to top
 [Profile]  [PM] 
blackpage
Contributor
Joined: 2005-09-02
Posts: 568
Location: Sonoran Desert
usa.gif
Contributor
Post 2014-07-23 19:44   [Quote] 
last sample
Back to top
 [Profile]  [PM] 
Al Fresco
Contributor
Joined: 2005-12-16
Posts: 3760
spain.gif
Contributor
Post 2014-07-23 19:46   [Quote] 
Many thanks to blackpage for his help at Dime & ZT Exclamation Exclamation Exclamation
Back to top
 [Profile]  [PM] 
blackpage
Contributor
Joined: 2005-09-02
Posts: 568
Location: Sonoran Desert
usa.gif
Contributor
Post 2014-07-23 19:48   [Quote] 
a picture from the front of the stage during Stick Men's set
Back to top
 [Profile]  [PM] 
blackpage
Contributor
Joined: 2005-09-02
Posts: 568
Location: Sonoran Desert
usa.gif
Contributor
Post 2014-07-23 19:50   [Quote] 
and one more of Don.

All thanks to AlFresco for all of this! I just pushed buttons and clicked my mouse and stuff like that.
Back to top
 [Profile]  [PM] 
Al Fresco
Contributor
Joined: 2005-12-16
Posts: 3760
spain.gif
Contributor
Post 2014-07-23 19:58   [Quote] 
I could film this video from the vip area of the stage...the security guards thought we were guests... Smile
and afterwards I could talk a bit with Tony Levin...
Back to top
 [Profile]  [PM] 
blackpage
Contributor
Joined: 2005-09-02
Posts: 568
Location: Sonoran Desert
usa.gif
Contributor
Post 2014-07-23 20:03   [Quote] 
Great photo AlFresco!!
Back to top
 [Profile]  [PM] 
belew-vibe
Busy Poster
Joined: 2011-08-27
Posts: 910
usa.gif
Post 2014-07-23 20:33   [Quote] 
This is absolutely awesome !!! I think the old 70's band mentioned was called "Aha, the Attack of the Green Slime Beast". Tony mentions it, along with more nice photos, here...

http://www.papabear.com/tours/cpsum14/cpsum14_10.htm
Back to top
 [Profile]  [PM] 
bazbo
Power Poster
Joined: 2004-07-09
Posts: 2438
Location: Planet Olanda
netherlands.gif
Post 2014-07-25 08:45   [Quote] 
Koel. I was there.
Thankz!

Guitar Solo Baz

_________________
'You can go my back on' - youngpumpkin
'If it didn't matter, then it would not matter.' - Julian Barnes
'There's no bad poetry; there's only bad people.' - Willem Bierman

'ALL FOR ONE, ONE FOR ALL'
- for Walk(spoon) - gone, but never forgotten

www.bazbo.net
Back to top
 [Profile]  [PM]  [www] 
Idiot
Power Poster
Joined: 2006-08-29
Posts: 1214
Location: Essex, England
uk.gif
Post 2014-07-26 23:49   [Quote] 
Tony announced this piece as 'Slime Beast Improv'.

_________________
FRANK TALK: THE INSIDE STORIES OF ZAPPA’S OTHER PEOPLE - available now!
www.idiotbastard.com
Back to top
 [Profile]  [PM]  [www] 
blackpage
Contributor
Joined: 2005-09-02
Posts: 568
Location: Sonoran Desert
usa.gif
Contributor
Post 2014-07-27 00:14   [Quote] 
Idiot wrote:
Tony announced this piece as 'Slime Beast Improv'.


Thanks, I meant to add this to the notes when you told me the other day! I like that he announced the piece that way.
Back to top
 [Profile]  [PM] 
jstf
Joined: 2008-11-28
Posts: 4
Post 2014-07-29 14:08   [Quote] 
Thanks a lot!
Any chance for an audio ul of the whole concert?
Back to top
 [Profile]  [PM] 
New topic title
Forum for new topic
 
Page 1 of 1
Display posts from previous:   
Post new topic   Reply to topic    www.zappateers.com Forum Index -> FZ Related All times are GMT + 1 Hour

 

Jump to:  
You cannot post new topics in this forum
You cannot reply to topics in this forum
You cannot edit your posts in this forum
You cannot delete your posts in this forum
You cannot vote in polls in this forum
You cannot attach files in this forum
You cannot download files in this forum



Powered by phpBB © 2001, 2005 phpBB Group, TorrentPier © Meithar