Tracker|Orphanz|FZShows|Catalogue| FAQ |Search |Register|Mail us

Profile |Log in to check your private messages |Log in|Chat Room|Scrapbook|Zappateers map
Captain Beefheart and The Magic Band 1972-05-06 Bickershaw Festival, England 63.54 AUD (youngpumpkin-JWB-SIRMick)  
Post new topic   Reply to topic    www.zappateers.com Forum Index -> The Beefheart Corner On The Tracker
DL-List
Complete: [ 103 ]
 
 
Author Message
SIRMick
Joined: 2007-04-28
Posts: 37
uk.gif
Post 2015-02-09 12:41   [Quote] 
Captain Beefheart and The Magic Band
Bickershaw Festival
Bickershaw, England
05/06/1972


The complete show, from three sources

Source 1 by Paul Brown
2nd gen

Source 2 By Chris Jones
Master audio cassette > Ampex R2R > cdr
Transferred by Graham Harper, who at the time was a BBC Studio Engineer

Source 3 by an unknown taper
Unknown gen

01 Hair Pie: Bake III
02 The Mascara Snake
03 The Mascara Fake
04 The Mascara For God's Sake
05 When It Blows Its Stacks
06 Click Clack
07 Grow Fins
08 Hobo Chang Ba
09 I'm Gonna Booglarize You Baby
10 Black Snake Moan
11 Peon
12 Abba Zaba
13 Band Intros
14 Alice In Blunderland
15 My Human Gets Me Blues
16 Steal Softly Thru Snow
17 Golden Birdies
18 Spitball Scalped Uh Baby


Total length - 66 minutes 5.49 seconds

The Band:

Captain Beefheart/Don Van Vliet - vocals, saxophone, harmonica
Rockette Morton/Mark Boston - bass guitar, guitar
Oréjon-Audi Hon/Roy Estrada - bass guitar
Zoot Horn Rollo/Bill Harkleroad - guitar, slide guitar
Winged Eel Fingerling/Elliot Ingber - guitar, slide guitar
Ed Marimba/Art Tripp - drums, percussion

Notes:

I remastered this with iZotope RX4 Advanced and iZotope Ozone 5 Advanced

- Azimuth and phase adjustments have been made.
- The noise eminating from the stage monitors has been reduced.
- Speed adjustments have also been made.
- Various artifacts have been eliminated or repaired, and the very heavy clapping close up has been attenuated.
- A number of level adjustments have been made.
- The bottom end on Chris's recording has been brought up a little.

Comments:

Chris only recorded part of this show and it provides from 2.16 seconds in 'Black Snake Moan' to 5:17.63 in 'Spitball Scalped Uh Baby'

It was recorded with what he lovingly refers to as his "crappy Pye cassette"

I was at Bickershaw too but didn't know Chris at that time but we have become friends since. I never went to see this
show, I don't know why, but I can remember listening to it whilst I was sitting in my tent.

Thanks to all involved.

edited and remastered
SIRMick
February 2015

shntool output:

length expanded size cdr WAVE problems fmt ratio filename
1:41.11 17842316 B --- -- ---xx flac 0.4737 01 Hair Pie Bake III.flac
0:39.19 6924332 B --- -- ---xx flac 0.4719 02 The Mascara Snake.flac
0:35.56 6305756 B --- -- ---xx flac 0.4603 03 The Mascara Fake.flac
1:02.07 10953308 B --- -- ---xx flac 0.4339 04 The Mascara For God's Sake.flac
4:05.50 43335644 B --- -- ---xx flac 0.5181 05 When It Blows Its Stacks.flac
3:46.61 40009916 B --- -- ---xx flac 0.5408 06 Click Clack.flac
5:37.60 59587964 B --- -- ---xx flac 0.5129 07 Grow Fins.flac
2:30.13 26490620 B --- -- ---xx flac 0.5014 08 Hobo Chang Ba.flac
6:07.52 64861148 B --- -- ---xx flac 0.5027 09 I'm Gonna Booglarize You Baby.flac
5:38.11 59649116 B --- -- ---xx flac 0.4219 10 Black Snake Moan.flac
2:43.73 28924940 B --- -- ---xx flac 0.4419 11 Peon.flac
3:16.52 34696748 B --- -- ---xx flac 0.4384 12 Abba Zaba.flac
1:07.58 11955260 B --- -- ---xx flac 0.4009 13 Band Intros.flac
6:10.63 65416220 B --- -- ---xx flac 0.4492 14 Alice In Blunderland.flac
4:22.36 46301516 B --- -- ---xx flac 0.4049 15 My Human Gets Me Blues.flac
3:05.36 32718716 B --- -- ---xx flac 0.4466 17 Steal Softly Thru Snow.flac
2:33.32 27064508 B --- -- ---xx flac 0.4050 18 Golden Birdies.flac
11:00.34 116504012 B --- -- ---xx flac 0.4811 19 Spitball Scalped Uh Baby.flac
66:05.49 699542040 B 0.4683 (18 files)

flac fingerprints:

01 Hair Pie Bake III.flac:e156f6543f33c918beb4036245dca3e2
02 The Mascara Snake.flac:a787c70ef778a6a58e359976e4913d7e
03 The Mascara Fake.flac:470756b60a2e339734995f4a3546e8ae
04 The Mascara For God's Sake.flac:116a1a640e1419e305117886bcaafd78
05 When It Blows Its Stacks.flac:3d17bba384a859bff62e84ba7fe387c2
06 Click Clack.flac:89e68afe9b591500f68185811a387be0
07 Grow Fins.flac:de9091990037d6ed4749cc80916e4ccb
08 Hobo Chang Ba.flac:7c588cf41e1cb646ec95d5b773195310
09 I'm Gonna Booglarize You Baby.flac:e5ce9ae55c677e512cafb7cec3b800ac
10 Black Snake Moan.flac:ca5482adff68a7788cb1e6c3bc5ef3e8
11 Peon.flac:c26b98dc6d232d5486d7148f87c504ef
12 Abba Zaba.flac:7c95cbaa8ceabd3190d4dcf8e7543857
13 Band Intros.flac:5df8f657d8966f909410b71d1a00cd7f
14 Alice In Blunderland.flac:589bd4a51b95ea7bab20eec23ca15b8a
15 My Human Gets Me Blues.flac:1e629453dabb9359b03132c045fd768f
17 Steal Softly Thru Snow.flac:174942d1bff65b832f80af62b19470b4
18 Golden Birdies.flac:2ab0f404105591cc946bd0446895380d
19 Spitball Scalped Uh Baby.flac:6cdeac5ebb550c6ea7c709daad59983b
Back to top
 [Profile]  [PM] 
Pittylabelle
Contributor
Joined: 2006-03-16
Posts: 4991
Location: Elsewhere in the Fatherland
germany.gif
Contributor
Post 2015-02-09 14:17   [Quote] 
Isn't it 1972 05 07?

_________________
"The (Zappa) universe ist nowhere to start!" ~ Frank Zappa
Back to top
 [Profile]  [PM]  [www] 
Galeans
Contributor
Joined: 2005-11-12
Posts: 3626
Contributor
Post 2015-02-09 15:25   [Quote] 
Thank you! Smile

Would you mind seeding the complete unpatched source #3 as well? Very Happy

cheers

_________________
"Grouch!"
Back to top
 [Profile]  [PM] 
father-0blivion
Power Poster
Joined: 2012-02-07
Posts: 3386
Location: Dwarf Nebula
england.gif
Post 2015-02-09 16:03   [Quote] 
Pittylabelle wrote:
Isn't it 1972 05 07?

See this post (although it doesn't explain much....)

FOB. Smile

_________________
''Just consider this..... You can be scared when it gets too real...''
(FZ: ''It Just Might Be A One-Shot Deal'')

'' 'n pretty soon, there won't be no street, for dummies to jog on, or doggies to dog on, religious fanatics, can make it be all gone...''
(FZ: ''Dumb All Over'')
Back to top
 [Profile]  [PM] 
SIRMick
Joined: 2007-04-28
Posts: 37
uk.gif
Post 2015-02-09 16:29   [Quote] 
Galeans wrote:
Thank you! Smile

Would you mind seeding the complete unpatched source #3 as well? Very Happy

cheers


I don't have that.
Back to top
 [Profile]  [PM] 
SIRMick
Joined: 2007-04-28
Posts: 37
uk.gif
Post 2015-02-09 16:31   [Quote] 
Pittylabelle wrote:
Isn't it 1972 05 07?


No, it is definitely 6th May. The Grateful Dead headlined the 7th. I was there

http://www.ukrockfestivals.com/capnb.html
Back to top
 [Profile]  [PM] 
Djangodi
Poster
Joined: 2007-03-21
Posts: 396
Location: Antwerp
belgium.gif
Post 2015-02-09 16:58   [Quote] 
Yes I know for sure it was Saturday 06
We arrived at the festival on Thursday 04 and left the completely drowned field on Sunday morning 07 to go to London buying some LP
Back to top
 [Profile]  [PM] 
willienelson
Joined: 2012-09-12
Posts: 2
usa.gif
Post 2015-02-18 21:35   [Quote] 
Thank You explorious combatioulous! Z_wonders mexicanwave mexicanwave mexicanwave crowd
Back to top
 [Profile]  [PM] 
frazer
Joined: 2012-12-28
Posts: 49
Location: New Zealand
newzealand.gif
Post 2015-02-19 11:57   [Quote] 
Thank you very much ! bravo

_________________
" Music Is The Best. " ~ F.Z
Back to top
 [Profile]  [PM] 
New topic title
Forum for new topic
 
Page 1 of 1
Display posts from previous:   
Post new topic   Reply to topic    www.zappateers.com Forum Index -> The Beefheart Corner On The Tracker All times are GMT

 

Jump to:  
You cannot post new topics in this forum
You cannot reply to topics in this forum
You cannot edit your posts in this forum
You cannot delete your posts in this forum
You cannot vote in polls in this forum
You cannot attach files in this forum
You cannot download files in this forum



Powered by phpBB © 2001, 2005 phpBB Group, TorrentPier © Meithar